[萌甜物语]XM128《紫色迷情范-琪琪》 收藏

[套图名称] : [萌甜物语]XM128《紫色迷情范-琪琪》
[套图尺寸] : 4240x2832
[套图大小] : 101P+1V/237.0M
[下载方式] : 百度网盘
[下载地址] : 点此获取下载地址 (VIP会员免积分下载)
下载包内为原版高清套图和视频,绝不含第三方水印!
[套图预览] : [萌甜物语]XM128《紫色迷情范-琪琪》 第1张
[视频名称] : 0102.mp4
[视频尺寸] : 1080x1920
[视频大小] : 1mp4/155.8M
[视频时长] : 00:02:06
[视频编码] :
Stream #0:0(eng): Video: h264 (Main) (avc1 / 0x31637661), yuv420p(tv, bt709), 1080x1920 [SAR 128:117 DAR 8:13], 10037 kb/s, SAR 1181:1080 DAR 1181:1920, 25 fps, 25 tbr, 25k tbn, 50 tbc (default)
Stream #0:1(eng): Audio: aac (LC) (mp4a / 0x6134706D), 48000 Hz, stereo, fltp, 317 kb/s (default)
[视频预览] : [萌甜物语]XM128《紫色迷情范-琪琪》 第1张

有用 (0)

评论加载中...