视频大小:47.1 MB
视频时长:00:09:26
Stream #0:0(und): Video: h264 (High) (avc1 / 0x31637661), yuv420p, 960x540 [SAR 1:1 DAR 16:9], 663 kb/s, 24 fps, 25 tbr, 12800 tbn, 50 tbc (default)
Stream #0:1(und): Audio: aac (HE-AAC) (mp4a / 0x6134706D), 48000 Hz, stereo, fltp, 32 kb/s (default)
评论加载中...