视频大小:19.5 MB
视频时长:00:20:00
Stream #0:0(und): Video: h264 (High) (avc1 / 0x31637661), yuv420p, 640x480 [SAR 1:1 DAR 4:3], 119 kb/s, 8 fps, 8 tbr, 16384 tbn, 16 tbc (default)
Stream #0:1(und): Audio: aac (LC) (mp4a / 0x6134706D), 8000 Hz, stereo, fltp, 15 kb/s (default)
评论加载中...