视频大小:38.6 MB
视频时长:00:18:39
Stream #0:0(und): Video: h264 (High) (avc1 / 0x31637661), yuv420p, 640x480 [SAR 1:1 DAR 4:3], 270 kb/s, 21 fps, 21 tbr, 10752 tbn, 42 tbc (default)
Stream #0:1(und): Audio: aac (HE-AAC) (mp4a / 0x6134706D), 48000 Hz, stereo, fltp, 16 kb/s (default)
评论加载中...